Forum Clubic

Splitter un mp3 avec un fichier .cue, Comment ?

Bonjours.

Qualqun saurait-il comment splitter un fichier mp3 en lisant les paramètre d’un fichier .cue ?

Miciii.
Edité le 02/07/2007 à 17:50

Oula, je ne suis pas sûr qu’une seule personne ait compris :wink:

Explique en français stp :slight_smile:

Tu es sûr d’être dans la bonne catégorie aussi ?
Edité le 02/07/2007 à 19:59

Donc j’ai deux fichiers.

  • Un fichier nom.cue, qui contient les informations tel que le nom des pistes, la durée des pistes.
  • Un fichier nom.mp3, qui contient toute les piste en un seul mp3 quoi.

Sur windows il existe des logiciels tel que “Medieval CUE Splitter”, logiciel qui permet de découper le mp3 par raport aux paramètres du fichier .cue

tu peut nous montreer un extrait du cue ? juste par curiosité

Oui voila :
On a le nom de l’artiste, de l’album, tout se qui permet d’editer le tag quand on coupe le morceau, avec la durée pour le ocuper

PERFORMER “VA”
TITLE “Hardcore Empire (Volume 1)-2CD-”
FILE “02-va_-_hardcore_empire_volume_1-cd2.mp3” MP3
TRACK 01 AUDIO
TITLE “Kaos In Texas”
PERFORMER “VA”
PERFORMANCE “Partyraiser Vs T.i.m.”
INDEX 01 00:00:00
TRACK 02 AUDIO
TITLE “Reactivated”
PERFORMER “VA”
PERFORMANCE “Lem-x”
INDEX 01 06:18:16
TRACK 03 AUDIO
TITLE “Coming Out Your Speaker”
PERFORMER “VA”
PERFORMANCE “Delirium”
INDEX 01 10:42:29
TRACK 04 AUDIO
TITLE “Anti Social”
PERFORMER “VA”
PERFORMANCE “Pan Panganator”
INDEX 01 16:17:42
TRACK 05 AUDIO
TITLE “Communism (Ophidian Remix)”
PERFORMER “VA”
PERFORMANCE “Juggernaut”
INDEX 01 20:46:57
TRACK 06 AUDIO
TITLE “Big Brothers”
PERFORMER “VA”
PERFORMANCE “Mastermind”
INDEX 01 25:23:54
TRACK 07 AUDIO
TITLE “Welcome To Hell”
PERFORMER “VA”
PERFORMANCE “Evil Entity”
INDEX 01 30:31:16
TRACK 08 AUDIO
TITLE “After Forever”
PERFORMER “VA”
PERFORMANCE “Dj Kristof Vs Bad Boy”
INDEX 01 37:33:23
TRACK 09 AUDIO
TITLE “Feel The Fire”
PERFORMER “VA”
PERFORMANCE “Delta 9”
INDEX 01 44:09:26
TRACK 10 AUDIO
TITLE “This Is Not A Game (Headbanger Mix)”
PERFORMER “VA”
PERFORMANCE “Delirium”
INDEX 01 47:15:02
TRACK 11 AUDIO
TITLE “Beat Motherfuck”
PERFORMER “VA”
PERFORMANCE “Hellsystem”
INDEX 01 53:44:00
TRACK 12 AUDIO
TITLE “Wild Boys”
PERFORMER “VA”
PERFORMANCE “Da Hardbeat Creators”
INDEX 01 60:24:49
TRACK 13 AUDIO
TITLE “Headnod Delivery”
PERFORMER “VA”
PERFORMANCE “Link”
INDEX 01 65:27:43
TRACK 14 AUDIO
TITLE “Hardcore Will Never Die”
PERFORMER “VA”
PERFORMANCE “Raveroy”
INDEX 01 71:29:46

il devrait être relativement facile de scripter quelque chose pour ça.

sinon une bete recherche google/linux “split mp3 cue” donne en premier résultat : mp3splt.sourceforge.net…

Erf, j’ai cherché sur google , mais n’ai rien trouvé, je dois pas savoir chercher ^^

Merci beaucoup en tout cas !

Facile à scripter, je sais pas, lol, dans le sens ou il faut savoir comment couper un mp3, etc. Je programme, mais pas à se niveau la je pense.

Merci encore !

Regard si se logiciel te convient

www.enfis.it…