Forum Clubic

Quel programme pour avoir les détails sur des fichiers vidéo ?

Bonjour,

Je viens de changer de pc, et j’avais l’habitude d’utiliser Mediainfo pour avoir les détails sur des fichiers vidéo.
Je voulais le télécharger sur mon nouveau pc, mais j’ai lu qu’il y a un logiciel espion dedans, du coup ça me fait peur.
Y-aurait-il un autre programme qui ferait la même chose que Mediainfo et qui serait inoffensif, s’il-vous-plait ?

Je vous remercie infiniment d’avance,

  • avra -

Salut,

sous W7, clic droit sur le fichier puis propriétés, détails…

++

Je te remercie :slight_smile:
En effet, ça fonctionne, je pensais que non.
Pour les .flv, y-a-t-il un moyen de voir, car ça ne fonctionne pas :frowning: ?
Merci :slight_smile:

Installe K-Lite Codec Pack (standard voir basic suffit).
Après quand ut fais clic-droit sur un fichier tu as l’options “Media Info”.

Exemple avec un FLV :
General
Complete name : D:%USER%\Videos\Touhou - Bad Apple!! PV.flv
Format : Flash Video
File size : 18.0 MiB
Duration : 3mn 38s
Overall bit rate : 689 Kbps
httphostheader : o-o.preferred.cablesurf-txl1.v17.lscache5.c.youtube.com

Video
Format : AVC
Format/Info : Advanced Video Codec
Format profile : Main@L3.0
Format settings, CABAC : Yes
Format settings, ReFrames : 3 frames
Format settings, GOP : M=1, N=30
Codec ID : 7
Duration : 3mn 38s
Bit rate : 561 Kbps
Width : 640 pixels
Height : 480 pixels
Display aspect ratio : 4:3
Frame rate mode : Constant
Frame rate : 30.000 fps
Color space : YUV
Chroma subsampling : 4:2:0
Bit depth : 8 bits
Scan type : Progressive
Bits/(Pixel*Frame) : 0.061
Stream size : 14.7 MiB (81%)

Audio
Format : AAC
Format/Info : Advanced Audio Codec
Format profile : LC
Codec ID : 10
Duration : 3mn 39s
Bit rate : 121 Kbps
Channel(s) : 2 channels
Channel positions : Front: L R
Sampling rate : 44.1 KHz
Compression mode : Lossy
Stream size : 3.16 MiB (18%)
Edité le 24/02/2012 à 15:15

Je te remercie infiniment :slight_smile: